web statistics

Beauty Rope Cosmetology 1983 DVDRip

Beauty Rope Cosmetology (1983)
Alternate Titles: Dan Oniroku: Bijo nawa-geshô
Miki is the daughter of an affluent family. She’s an elegant and sophisticated girl who gets captured by a secret admirer. The sadist tortures Moo, successfully turning her into masochistic woman.
IMDB Rating: 6.8/10 (10 votes)
Directed By: Katsuhiko Fujii
Written By: Oniroku Dan
Released: 02 Dec 1983 (31 years ago)
Runtime: 69 Mins
Countries: Japan
Languages: Japanese

MediaInfo :

General
Complete name : D:\Beauty Rope Cosmetology (1983).avi
Format : AVI
Format/Info : Audio Video Interleave
File size : 572 MiB
Duration : 1h 10mn
Overall bit rate : 1 129 Kbps
Writing library : VirtualDubMod 1.5.10.1 (build 2439/release)

Video
ID : 0
Format : MPEG-4 Visual
Format settings, BVOP : 1
Format settings, QPel : No
Format settings, GMC : No warppoints
Format settings, Matrix : Default (H.263)
Muxing mode : Packed bitstream
Codec ID : DX50
Codec ID/Hint : DivX 5
Duration : 1h 10mn
Bit rate : 938 Kbps
Width : 720 pixels
Height : 376 pixels
Display aspect ratio : 1.915
Frame rate mode : Variable
Frame rate : 119.880 (24/30) fps
Minimum frame rate : 23.976 fps
Maximum frame rate : 29.970 fps
Color space : YUV
Chroma subsampling : 4:2:0
Bit depth : 8 bits
Scan type : Progressive
Compression mode : Lossy
Bits/(Pixel*Frame) : 0.029
Stream size : 475 MiB (83%)
Writing library : DivX 5.1.1 (Maupiti) (UTC 2003-11-19)

Audio
ID : 1
Format : MPEG Audio
Format version : Version 1
Format profile : Layer 3
Mode : Joint stereo
Mode extension : MS Stereo
Codec ID : 55
Codec ID/Hint : MP3
Duration : 1h 10mn
Bit rate mode : Constant
Bit rate : 160 Kbps
Channel(s) : 2 channels
Sampling rate : 48.0 KHz
Compression mode : Lossy
Stream size : 81.0 MiB (14%)
Alignment : Aligned on interleaves
Interleave, duration : 24 ms (2.88 video frames)
Interleave, preload duration : 504 ms
Writing library : LAME3.96
Encoding settings : -m j -V 4 -q 2 -lowpass 18 -b 160

Screenshoot :

Link Download :

UPTOBOX

Beauty Rope Cosmetology (1983).part1.rar – 500.0 MB
Beauty Rope Cosmetology (1983).part2.rar – 71.8 MB
USERSCLOUD
Beauty Rope Cosmetology (1983).part1.rar – 500.0 MB
Beauty Rope Cosmetology (1983).part2.rar – 71.8 MB

Author: ninja
Tags

Similar posts

Leave a Reply

Your email address will not be published. Required fields are marked *