web statistics

Kabukicho Love Hotel 2015 JAP DVDRip x264 AC3

Kabukicho Love Hotel (2015)
Alternate Titles: さよなら歌舞伎町
This erotically charged drama from Japanese director Ryuichi Hiroki (Vibrator) traces the intersecting stories of a group of employees and visitors at a notorious “love hotel” in Tokyo’s red-light district.
IMDB Rating: 7.3/10 (111 votes)
tt3876372 287493
Directed By: Ryuichi Hiroki
Written By: Haruhiko Arai Futoshi Nakano
Released: 24 Jan 2015 (7 months ago)
Runtime: 135 Mins
Genre: Drama Comedy Romance
Countries: Japan
Languages: Japanese Korean
MediaInfo : 
General
Unique ID : 234574861707774813521740729507669568028 (0xB079799BFB72ECFEA617BB2275EF6A1C)
Complete name : M:\Kabukicho.Love.Hotel.2015.DVDRip.x264.AC3-zdzdz.mkv
Format : Matroska
Format version : Version 4 / Version 2
File size : 1.66 GiB
Duration : 2h 14mn
Overall bit rate : 1 764 Kbps
Encoded date : UTC 2015-09-18 19:14:48
Writing application : mkvmerge v8.3.0 ('Over the Horizon') 64bit
Writing library : libebml v1.3.1 + libmatroska v1.4.2
DURATION : 02:14:32.192000000
NUMBER_OF_FRAMES : 252256
NUMBER_OF_BYTES : 452042752
_STATISTICS_WRITING_APP : mkvmerge v8.3.0 ('Over the Horizon') 64bit
_STATISTICS_WRITING_DATE_UT : 2015-09-18 19:14:48
_STATISTICS_TAGS : BPS DURATION NUMBER_OF_FRAMES NUMBER_OF_BYTES

Video
ID : 1
Format : AVC
Format/Info : Advanced Video Codec
Format profile : High@L5.1
Format settings, CABAC : Yes
Format settings, ReFrames : 11 frames
Codec ID : V_MPEG4/ISO/AVC
Duration : 2h 14mn
Bit rate : 1 314 Kbps
Width : 720 pixels
Height : 384 pixels
Display aspect ratio : 1.85:1
Frame rate mode : Constant
Frame rate : 23.976 fps
Color space : YUV
Chroma subsampling : 4:2:0
Bit depth : 8 bits
Scan type : Progressive
Bits/(Pixel*Frame) : 0.198
Stream size : 1.20 GiB (73%)
Title : Encoded by zdzdz
Writing library : x264 core 148 r2597 e86f3a1
Encoding settings : cabac=1 / ref=11 / deblock=1:-1:-1 / analyse=0x3:0x133 / me=umh / subme=11 / psy=1 / psy_rd=1.00:0.00 / mixed_ref=1 / me_range=32 / chroma_me=1 / trellis=2 / 8x8dct=1 / cqm=0 / deadzone=21,11 / fast_pskip=1 / chroma_qp_offset=-2 / threads=3 / lookahead_threads=1 / sliced_threads=0 / nr=0 / decimate=1 / interlaced=0 / bluray_compat=0 / constrained_intra=0 / bframes=10 / b_pyramid=2 / b_adapt=2 / b_bias=5 / direct=3 / weightb=1 / open_gop=0 / weightp=2 / keyint=240 / keyint_min=23 / scenecut=40 / intra_refresh=0 / rc_lookahead=40 / rc=2pass / mbtree=1 / bitrate=1314 / ratetol=1.0 / qcomp=0.60 / qpmin=0 / qpmax=69 / qpstep=4 / cplxblur=20.0 / qblur=0.5 / vbv_maxrate=240000 / vbv_bufsize=240000 / nal_hrd=none / filler=0 / ip_ratio=1.40 / aq=2:0.80
Language : Japanese
Default : Yes
Forced : No
DURATION : 02:14:32.231000000
NUMBER_OF_FRAMES : 193540
NUMBER_OF_BYTES : 1325937651
_STATISTICS_WRITING_APP : mkvmerge v8.3.0 ('Over the Horizon') 64bit
_STATISTICS_WRITING_DATE_UT : 2015-09-18 19:14:48
_STATISTICS_TAGS : BPS DURATION NUMBER_OF_FRAMES NUMBER_OF_BYTES

Audio
ID : 2
Format : AC-3
Format/Info : Audio Coding 3
Mode extension : CM (complete main)
Format settings, Endianness : Big
Codec ID : A_AC3
Duration : 2h 14mn
Bit rate mode : Constant
Bit rate : 448 Kbps
Channel(s) : 6 channels
Channel positions : Front: L C R, Side: L R, LFE
Sampling rate : 48.0 KHz
Compression mode : Lossy
Stream size : 431 MiB (25%)
Title : AC3
Language : Japanese
Default : Yes
Forced : No

Menu
00:00:00.000 : :Chapter 01
00:10:59.667 : :Chapter 02
00:17:01.867 : :Chapter 03
00:23:26.501 : :Chapter 04
00:33:33.168 : :Chapter 05
00:40:02.869 : :Chapter 06
00:49:42.203 : :Chapter 07
01:00:08.336 : :Chapter 08
01:04:42.369 : :Chapter 09
01:15:24.536 : :Chapter 10
01:24:48.170 : :Chapter 11
01:35:58.170 : :Chapter 12
01:49:27.203 : :Chapter 13
01:56:20.171 : :Chapter 14
02:01:35.505 : :Chapter 15
02:11:54.672 : :Chapter 16
02:14:23.172 : :Chapter 17
 

 

Screenshoot :
USERSCLOUD
Kabukicho.Love.Hotel.2015.part1.rar – 500.0 MB
Kabukicho.Love.Hotel.2015.part2.rar – 500.0 MB
Kabukicho.Love.Hotel.2015.part3.rar – 500.0 MB
Kabukicho.Love.Hotel.2015.part4.rar – 197.2 MB

UPTOBOX
Kabukicho.Love.Hotel.2015.part1.rar – 500.0 MB
Kabukicho.Love.Hotel.2015.part2.rar – 500.0 MB
Kabukicho.Love.Hotel.2015.part3.rar – 500.0 MB
Kabukicho.Love.Hotel.2015.part4.rar – 197.2 MB

Author: ninja
Tags

Similar posts

Leave a Reply

Your email address will not be published. Required fields are marked *