web statistics

New Female Prisoner Scorpion: Special Cellblock X 1977 DVDRip

New Female Prisoner Scorpion: Special Cellblock X (1977)
Alternate Titles: Shin joshuu sasori: Tokushu-bô X
A nurse is framed for her involvement in the hospital murder of a politician who was threatening to expose corrupt practices. She escapes from jail but is captured and sent back, resulting in the rest of the inmates being punished, added to which of a new, tougher, head of security arrives to take up her new job….
IMDB Rating: 6.4/10 (49 votes)
tt0227490 119029
Directed By: Yutaka Kohira
Written By: Tooru Shinohara Tatsuhiko Kamoi
Released: 18 Jun 1977 (38 years ago)
Runtime: 84 Mins
Genre: Drama Thriller Crime
Countries: Japan
Languages: Japanese

MediaInfo :

General
Complete name : C:\AvistaZ Torrents\Special Cellblock X.mp4
Format : MPEG-4
Format profile : Base Media
Codec ID : isom
File size : 1.06 GiB
Duration : 1h 25mn
Overall bit rate mode : Variable
Overall bit rate : 1 762 Kbps
Encoded date : UTC 2015-09-16 16:46:17
Tagged date : UTC 2015-09-16 16:46:17
Writing application : Lavf54.63.104

Video
ID : 1
Format : AVC
Format/Info : Advanced Video Codec
Format profile : Main@L3
Format settings, CABAC : Yes
Format settings, ReFrames : 1 frame
Codec ID : avc1
Codec ID/Info : Advanced Video Coding
Duration : 1h 25mn
Bit rate : 1 601 Kbps
Width : 624 pixels
Height : 352 pixels
Display aspect ratio : 16:9
Frame rate mode : Constant
Frame rate : 29.970 fps
Color space : YUV
Chroma subsampling : 4:2:0
Bit depth : 8 bits
Scan type : Progressive
Bits/(Pixel*Frame) : 0.243
Stream size : 977 MiB (90%)
Writing library : x264 core 129
Encoding settings : cabac=1 / ref=1 / deblock=1:0:0 / analyse=0x1:0x131 / me=dia / subme=2 / psy=1 / psy_rd=1.00:0.00 / mixed_ref=0 / me_range=16 / chroma_me=1 / trellis=0 / 8x8dct=0 / cqm=0 / deadzone=21,11 / fast_pskip=1 / chroma_qp_offset=0 / threads=4 / lookahead_threads=1 / sliced_threads=0 / nr=0 / decimate=1 / interlaced=0 / bluray_compat=0 / constrained_intra=0 / bframes=0 / weightp=2 / keyint=250 / keyint_min=25 / scenecut=40 / intra_refresh=0 / rc_lookahead=40 / rc=abr / mbtree=1 / bitrate=1601 / ratetol=1.0 / qcomp=0.60 / qpmin=10 / qpmax=51 / qpstep=4 / ip_ratio=1.41 / aq=1:1.00
Encoded date : UTC 2015-09-16 16:46:17
Tagged date : UTC 2015-09-16 16:46:17

Audio
ID : 2
Format : AAC
Format/Info : Advanced Audio Codec
Format profile : LC
Codec ID : 40
Duration : 1h 25mn
Duration_FirstFrame : 64ms
Bit rate mode : Variable
Bit rate : 165 Kbps
Maximum bit rate : 192 Kbps
Channel(s) : 2 channels
Channel positions : Front: L R
Sampling rate : 48.0 KHz
Compression mode : Lossy
Stream size : 102 MiB (9%)
Encoded date : UTC 2015-09-16 16:46:17
Tagged date : UTC 2015-09-16 16:46:17
 
ScreenShot : 

Link Download :


USERSCLOUD Special Cellblock X.part1.rar – 500.0 MB
Special Cellblock X.part2.rar – 500.0 MB
Special Cellblock X.part3.rar – 82.8 MB

Author: ninja
Tags

Similar posts

Leave a Reply

Your email address will not be published. Required fields are marked *