web statistics

Romance of the West Chamber (1997) DVD5

Cheung, A 23-year-old unmarried travelling scholar, stops over at a monastery, where he sights a beautiful woman. Against the rules, Monk Faben allows Cheung to stay and woo the girl, Ann-Ann. She is shy, and also is the Prime Minister’s daughter, so the wooing is arranged by Ann-Ann’s maid Hung.

Genre: Romance Adult
Countries: Hong Kong
Languages: Cantonese

Sub : English Chinese

Media Info :

General
Unique ID : 248059525583293702350022796984591313660 (0xBA9E86DE67C2530883B7DED4CAFBEAFC)
Complete name : Romance of the West Chamber (1997) DVD5.mkv
Format : Matroska
Format version : Version 2
File size : 3.13 GiB
Duration : 1h 33mn
Overall bit rate mode : Variable
Overall bit rate : 4 796 Kbps
Encoded date : UTC 2014-07-20 18:10:33
Writing application : MakeMKV v1.8.11 win(x64-release)
Writing library : libmakemkv v1.8.11 (1.3.0/1.4.1) win(x64-release)

Video
ID : 1
Format : MPEG Video
Format version : Version 2
Format profile : Main@Main
Format settings, BVOP : No
Format settings, Matrix : Custom
Format settings, picture structure : Frame
Codec ID : V_MPEG2
Codec ID/Info : MPEG 1 or 2 Video
Duration : 1h 33mn
Bit rate mode : Variable
Bit rate : 3 933 Kbps
Maximum bit rate : 7 000 Kbps
Width : 720 pixels
Height : 480 pixels
Display aspect ratio : 4:3
Frame rate mode : Constant
Frame rate : 29.970 fps
Standard : NTSC
Color space : YUV
Chroma subsampling : 4:2:0
Bit depth : 8 bits
Scan type : Interlaced
Scan order : Top Field First
Compression mode : Lossy
Bits/(Pixel*Frame) : 0.380
Time code of first frame : 00:00:59:00
Time code source : Group of pictures header
Stream size : 2.56 GiB (82%)
Language : English
Default : No
Forced : No

Audio #1
ID : 2
Format : AC-3
Format/Info : Audio Coding 3
Mode extension : CM (complete main)
Format settings, Endianness : Big
Codec ID : A_AC3
Duration : 1h 33mn
Bit rate mode : Constant
Bit rate : 384 Kbps
Channel(s) : 3 channels
Channel positions : Front: L R, LFE
Sampling rate : 48.0 KHz
Bit depth : 16 bits
Compression mode : Lossy
Delay relative to video : -67ms
Stream size : 256 MiB (8%)
Title : Surround 2.1
Language : English
Default : Yes
Forced : No

Audio #2
ID : 3
Format : AC-3
Format/Info : Audio Coding 3
Mode extension : CM (complete main)
Format settings, Endianness : Big
Codec ID : A_AC3
Duration : 1h 33mn
Bit rate mode : Constant
Bit rate : 384 Kbps
Channel(s) : 3 channels
Channel positions : Front: L R, LFE
Sampling rate : 48.0 KHz
Bit depth : 16 bits
Compression mode : Lossy
Delay relative to video : -67ms
Stream size : 256 MiB (8%)
Title : Surround 2.1
Language : English
Default : No
Forced : No

Menu
00:00:00.066 : en:Chapter 01
00:05:01.167 : en:Chapter 02
00:10:01.867 : en:Chapter 03
00:15:01.767 : en:Chapter 04
00:20:02.067 : en:Chapter 05
00:25:02.767 : en:Chapter 06
00:30:02.867 : en:Chapter 07
00:35:03.267 : en:Chapter 08
00:40:03.667 : en:Chapter 09
00:45:03.867 : en:Chapter 10
00:50:03.967 : en:Chapter 11
00:55:04.467 : en:Chapter 12
01:00:04.667 : en:Chapter 13
01:05:05.067 : en:Chapter 14
01:10:05.367 : en:Chapter 15
01:15:05.567 : en:Chapter 16
01:20:05.767 : en:Chapter 17
01:25:06.167 : en:Chapter 18
01:30:06.267 : en:Chapter 19
 

Screenshot :

Link Download
RAPIDGATOR
Romance_of_the_West_Chamber_(1997).part1.rar
Romance_of_the_West_Chamber_(1997).part2.rar
Romance_of_the_West_Chamber_(1997).part3.rar
Romance_of_the_West_Chamber_(1997).part4.rar
Romance_of_the_West_Chamber_(1997).part5.rar
Romance_of_the_West_Chamber_(1997).part6.rar
Romance_of_the_West_Chamber_(1997).part7.rar
USERSCLOUD
Romance of the West Chamber (1997).part1.rar – 500.0 MBRomance of the West Chamber (1997).part2.rar – 500.0 MBRomance of the West Chamber (1997).part3.rar – 500.0 MBRomance of the West Chamber (1997).part4.rar – 500.0 MBRomance of the West Chamber (1997).part5.rar – 500.0 MBRomance of the West Chamber (1997).part6.rar – 500.0 MBRomance of the West Chamber (1997).part7.rar – 201.9 MB

Author: ninja
Tags

Similar posts

Leave a Reply

Your email address will not be published. Required fields are marked *