web statistics

Sashimi 2015 720p BluRay x264

Sashimi (2015)
Alternate Titles: 沙西米
Popular Japanese AV star Asano Natsumi is thrown for a loop when she finds out that an AV actor she‘s long worked with is HIV-positive. Shocked and adrift, she ends up visiting a B&B in Taiwan run by two equally lost individuals: a sushi chef who‘s lost the love of his life, and his apprentice who isn‘t sure whether she loves or doesn‘t love her teacher.
IMDB Rating: 5.6/10 (7 votes)
tt4510898
Released: 24 Apr 2015 (4 months ago)
Runtime: 88 Mins
Genre: Comedy Romance
Countries: Taiwan
Languages: Japanese Mandarin
MediaInfo : 
General
Unique ID : 241616288415346364589405289322323142021 (0xB5C59ABFED7335D2B5E7A2BE26E86585)
Complete name : Sashimi.2015.720p.BluRay.x264-WiKi.mkv
Format : Matroska
Format version : Version 4 / Version 2
File size : 3.50 GiB
Duration : 1h 26mn
Overall bit rate : 5 815 Kbps
Movie name : Jubowo @ WiKi
Encoded date : UTC 2015-09-16 13:32:37
Writing application : mkvmerge v8.2.0 ('World of Adventure') 64bit
Writing library : libebml v1.3.1 + libmatroska v1.4.2
DURATION : 01:21:20.867000000
NUMBER_OF_FRAMES : 862
NUMBER_OF_BYTES : 17822
_STATISTICS_WRITING_APP : mkvmerge v8.2.0 ('World of Adventure') 64bit
_STATISTICS_WRITING_DATE_UTC : 2015-09-16 13:32:37
_STATISTICS_TAGS : BPS DURATION NUMBER_OF_FRAMES NUMBER_OF_BYTES

Video
ID : 1
Format : AVC
Format/Info : Advanced Video Codec
Format profile : High@L4.1
Format settings, CABAC : Yes
Format settings, ReFrames : 12 frames
Codec ID : V_MPEG4/ISO/AVC
Duration : 1h 26mn
Bit rate : 5 174 Kbps
Width : 1 280 pixels
Height : 536 pixels
Display aspect ratio : 2.40:1
Frame rate mode : Constant
Frame rate : 24.000 fps
Color space : YUV
Chroma subsampling : 4:2:0
Bit depth : 8 bits
Scan type : Progressive
Bits/(Pixel*Frame) : 0.314
Stream size : 3.05 GiB (87%)
Writing library : x264 core 129 r2245+704+36 8e61944 tMod+MixAQ [8-bit@4:2:0 X86_64]
Encoding settings : cabac=1 / ref=12 / deblock=1:-3:-3 / analyse=0x3:0x133 / me=umh / subme=11 / psy=1 / fade_compensate=0.00 / psy_rd=1.05:0.10 / mixed_ref=1 / me_range=32 / chroma_me=1 / trellis=2 / 8x8dct=1 / cqm=0 / deadzone=21,11 / fast_pskip=0 / chroma_qp_offset=-3 / threads=18 / lookahead_threads=3 / sliced_threads=0 / nr=0 / decimate=0 / interlaced=0 / bluray_compat=0 / constrained_intra=0 / fgo=0 / bframes=10 / b_pyramid=2 / b_adapt=2 / b_bias=0 / direct=3 / weightb=1 / open_gop=0 / weightp=2 / keyint=250 / keyint_min=24 / scenecut=40 / intra_refresh=0 / rc_lookahead=80 / rc=2pass / mbtree=1 / bitrate=5174 / ratetol=1.0 / qcomp=0.70 / qpmin=0 / qpmax=69 / qpstep=4 / cplxblur=20.0 / qblur=0.5 / ip_ratio=1.40 / aq=1 / aq-strength=0.85 / aq-sensitivity=10.00 / aq-ifactor=1.00 / aq-pfactor=1.00 / aq-bfactor=1.00 / aq2=0
Language : Multiple languages
Default : Yes
Forced : No
Color range : Limited
Matrix coefficients : BT.709
DURATION : 01:26:14.125000000
NUMBER_OF_FRAMES : 124179
NUMBER_OF_BYTES : 3345576346
_STATISTICS_WRITING_APP : mkvmerge v8.2.0 ('World of Adventure') 64bit
_STATISTICS_WRITING_DATE_UTC : 2015-09-16 13:32:37
_STATISTICS_TAGS : BPS DURATION NUMBER_OF_FRAMES NUMBER_OF_BYTES

Audio
ID : 2
Format : AC-3
Format/Info : Audio Coding 3
Mode extension : CM (complete main)
Format settings, Endianness : Big
Codec ID : A_AC3
Duration : 1h 26mn
Bit rate mode : Constant
Bit rate : 640 Kbps
Channel(s) : 6 channels
Channel positions : Front: L C R, Side: L R, LFE
Sampling rate : 48.0 KHz
Compression mode : Lossy
Stream size : 395 MiB (11%)
Language : Multiple languages
Default : Yes
Forced : No

Text #1
ID : 3
Format : UTF-8
Codec ID : S_TEXT/UTF8
Codec ID/Info : UTF-8 Plain Text
Title : Simplified
Language : Chinese
Default : Yes
Forced : No

Text #2
ID : 4
Format : UTF-8
Codec ID : S_TEXT/UTF8
Codec ID/Info : UTF-8 Plain Text
Title : Traditional
Language : Chinese
Default : No
Forced : No

Menu
00:00:00.000 : en:00:00:00.000
00:06:59.125 : en:00:06:59.125
00:10:47.416 : en:00:10:47.416
00:17:20.083 : en:00:17:20.083
00:23:10.416 : en:00:23:10.416
00:26:14.166 : en:00:26:14.166
00:32:08.500 : en:00:32:08.500
00:35:59.375 : en:00:35:59.375
00:41:53.875 : en:00:41:53.875
00:45:39.333 : en:00:45:39.333
00:48:41.000 : en:00:48:41.000
00:53:29.125 : en:00:53:29.125
00:59:04.541 : en:00:59:04.541
01:02:36.125 : en:01:02:36.125
01:06:58.000 : en:01:06:58.000
01:11:48.541 : en:01:11:48.541
01:15:48.666 : en:01:15:48.666
01:20:02.833 : en:01:20:02.833
 
ScreenShot : 
 

 Link Download : 

 

Sashimi.2015.720p.BluRay.x264.part1.rar – 500.0 MB
Sashimi.2015.720p.BluRay.x264.part2.rar – 500.0 MB
Sashimi.2015.720p.BluRay.x264.part3.rar – 500.0 MB
Sashimi.2015.720p.BluRay.x264.part4.rar – 500.0 MB
Sashimi.2015.720p.BluRay.x264.part5.rar – 500.0 MB
Sashimi.2015.720p.BluRay.x264.part6.rar – 500.0 MB
Sashimi.2015.720p.BluRay.x264.part7.rar – 500.0 MB
Sashimi.2015.720p.BluRay.x264.part8.rar – 86.6 MB

Author: ninja
Tags

Similar posts

Leave a Reply

Your email address will not be published. Required fields are marked *