web statistics

Sex Hunter 1980 DVDRip x264

Sex Hunter (1980)
Alternate Titles: セックスハンター 性狩人

A beautiful young ballet dancer is accepted into a prestigious and exclusive dance academy. Overjoyed at the opportunity to further her career and repair her relationship with her boyfriend, she soon discovers that the academy has a much, much darker side to it–and she may not be able to escape it.
Directed By: Toshiharu Ikeda

Released: 22 Oct 1980 (34 years ago)
Runtime: 67 Mins
Genre: Drama
Countries: Japan
Languages: Japanese
Media Info : 
General
Unique ID : 212141426271490320588721756332614183549 (0x9F98F3D903B4523D897FD26A7F8B6A7D)
Complete name : Sex.Hunter.1980.DVDRip.x264-ATHEiST\Sex.Hunter.1980.DVDRip-ATHEiST.mkv
Format : Matroska
Format version : Version 4 / Version 2
File size : 929 MiB
Duration : 1h 7mn
Overall bit rate : 1 927 Kbps
Encoded date : UTC 2015-08-30 10:33:59
Writing application : mkvmerge v8.3.0 ('Over the Horizon') 64bit
Writing library : libebml v1.3.1 + libmatroska v1.4.2
DURATION : 01:07:17.475000000
NUMBER_OF_FRAMES : 313
NUMBER_OF_BYTES : 7712
_STATISTICS_WRITING_APP : mkvmerge v8.3.0 ('Over the Horizon') 64bit
_STATISTICS_WRITING_DATE_UTC : 2015-08-30 10:33:59
_STATISTICS_TAGS : BPS DURATION NUMBER_OF_FRAMES NUMBER_OF_BYTES

Video
ID : 1
Format : AVC
Format/Info : Advanced Video Codec
Format profile : High@L3.1
Format settings, CABAC : Yes
Format settings, ReFrames : 16 frames
Codec ID : V_MPEG4/ISO/AVC
Duration : 1h 7mn
Bit rate : 1 696 Kbps
Width : 714 pixels
Height : 372 pixels
Display aspect ratio : 2.25:1
Original display aspect ratio : 2.25:1
Frame rate mode : Constant
Frame rate : 23.976 fps
Color space : YUV
Chroma subsampling : 4:2:0
Bit depth : 8 bits
Scan type : Progressive
Bits/(Pixel*Frame) : 0.266
Stream size : 818 MiB (88%)
Writing library : x264 core 148 r2579 73ae2d1
Encoding settings : cabac=1 / ref=16 / deblock=1:-1:-1 / analyse=0x3:0x133 / me=tesa / subme=11 / psy=1 / psy_rd=1.00:0.15 / mixed_ref=1 / me_range=24 / chroma_me=1 / trellis=2 / 8x8dct=1 / cqm=0 / deadzone=21,11 / fast_pskip=0 / chroma_qp_offset=-3 / threads=6 / lookahead_threads=1 / sliced_threads=0 / nr=0 / decimate=1 / interlaced=0 / bluray_compat=0 / constrained_intra=0 / bframes=16 / b_pyramid=2 / b_adapt=2 / b_bias=0 / direct=3 / weightb=1 / open_gop=0 / weightp=2 / keyint=250 / keyint_min=23 / scenecut=40 / intra_refresh=0 / rc_lookahead=60 / rc=crf / mbtree=1 / crf=17.0 / qcomp=0.60 / qpmin=0 / qpmax=69 / qpstep=4 / ip_ratio=1.40 / aq=1:1.00
Language : Japanese
Default : Yes
Forced : No
Color range : Limited
Matrix coefficients : BT.601
DURATION : 01:07:25.875000000
NUMBER_OF_FRAMES : 97004
NUMBER_OF_BYTES : 876459073
_STATISTICS_WRITING_APP : mkvmerge v8.3.0 ('Over the Horizon') 64bit
_STATISTICS_WRITING_DATE_UTC : 2015-08-30 10:33:59
_STATISTICS_TAGS : BPS DURATION NUMBER_OF_FRAMES NUMBER_OF_BYTES

Audio
ID : 2
Format : AC-3
Format/Info : Audio Coding 3
Mode extension : CM (complete main)
Format settings, Endianness : Big
Codec ID : A_AC3
Duration : 1h 7mn
Bit rate mode : Constant
Bit rate : 192 Kbps
Channel(s) : 2 channels
Channel positions : Front: L R
Sampling rate : 48.0 KHz
Bit depth : 16 bits
Compression mode : Lossy
Stream size : 92.6 MiB (10%)
Language : Japanese
Default : Yes
Forced : No

Text
ID : 3
Format : UTF-8
Codec ID : S_TEXT/UTF8
Codec ID/Info : UTF-8 Plain Text
Language : English
Default : Yes
Forced : No 
 
Screenshot : 

Link Download : 

RAPIDGATOR
Sex_Hunter_1980.part1.rar
Sex_Hunter_1980.part2.rar

USERSCLOUD
Sex Hunter 1980.part1.rar – 500.0 MB
Sex Hunter 1980.part2.rar – 429.3 MB

Author: ninja
Tags

Similar posts

Leave a Reply

Your email address will not be published. Required fields are marked *