web statistics

Young Mother 3 2015 1080p HDRip AC3 x264

Young Mother 3 (2015)
Alternate Titles: 젊은 엄마3
Twenty year-old Ki-chan lives alone with his father. One day Yoon-seo (Kim Jeong-ah), his stepmother comes to live with them. She tries to be friendly with Ki-chan but he appraoches her as a woman and starts showing her that. Yoon-seo strongly rejects him but he knows that she wants him too. Their relationship turns into something dangerous. Then one day, Min-jeong, who has had a crush on Ki-chan for a long time, finds out what is going on between the two. The young stepmother fools her husband and falls in love with his son and the son falls in love with his father’s woman. They make a deal with Min-jeong to make sure she doesn’t say anything.
Released: 03 Sep 2015 (2 weeks ago)
Runtime: 95 Mins
Genre: Romance
Countries: South Korea
Languages: Korean

MediaInfo :

Video
ID : 1
Format : AVC
Format/Info : Advanced Video Codec
Format profile : High@L4.1
Format settings, CABAC : Yes
Format settings, ReFrames : 2 frames
Codec ID : V_MPEG4/ISO/AVC
Duration : 1h 35mn
Bit rate : 7 000 Kbps
Width : 1 920 pixels
Height : 1 080 pixels
Display aspect ratio : 16:9
Frame rate mode : Constant
Frame rate : 29.970 fps
Color space : YUV
Chroma subsampling : 4:2:0
Bit depth : 8 bits
Scan type : Progressive
Bits/(Pixel*Frame) : 0.113
Stream size : 4.51 GiB (93%)
Title : Edit by 治祐韓彬 ☞ N.E.T.ism
Writing library : x264 core 120
Encoding settings : cabac=1 / ref=2 / deblock=1:0:0 / analyse=0x3:0x113 / me=hex / subme=6 / psy=1 / psy_rd=1.0:0.0 / mixed_ref=1 / me_range=16 / chroma_me=1 / trellis=0 / 8x8dct=1 / cqm=0 / deadzone=21,11 / fast_pskip=0 / chroma_qp_offset=-2 / threads=8 / sliced_threads=0 / nr=0 / decimate=1 / mbaff=0 / constrained_intra=0 / bframes=2 / b_pyramid=0 / b_adapt=0 / b_bias=0 / direct=3 / wpredb=0 / wpredp=2 / keyint=150 / keyint_min=76 / scenecut=0 / intra_refresh=0 / rc_lookahead=40 / rc=abr / mbtree=1 / bitrate=7000 / ratetol=1.0 / qcomp=0.60 / qpmin=0 / qpmax=51 / qpstep=4 / ip_ratio=1.41 / aq=1:1.00
Language : Korean
Default : Yes
Forced : No

Audio
ID : 2
Format : AC-3
Format/Info : Audio Coding 3
Mode extension : CM (complete main)
Format settings, Endianness : Big
Codec ID : A_AC3
Duration : 1h 35mn
Bit rate mode : Constant
Bit rate : 384 Kbps
Channel(s) : 2 channels
Channel positions : Front: L R
Sampling rate : 48.0 KHz
Compression mode : Lossy
Stream size : 262 MiB (5%)
Language : Korean

Screenshot :

Link Download : Young.Mother.Real.3.2015.1080p.HDRip.AC3.x264-KTH.part01.rar – 500.0 MB
Young.Mother.Real.3.2015.1080p.HDRip.AC3.x264-KTH.part02.rar – 500.0 MB
Young.Mother.Real.3.2015.1080p.HDRip.AC3.x264-KTH.part03.rar – 500.0 MB
Young.Mother.Real.3.2015.1080p.HDRip.AC3.x264-KTH.part04.rar – 500.0 MB
Young.Mother.Real.3.2015.1080p.HDRip.AC3.x264-KTH.part05.rar – 500.0 MB
Young.Mother.Real.3.2015.1080p.HDRip.AC3.x264-KTH.part06.rar – 500.0 MB
Young.Mother.Real.3.2015.1080p.HDRip.AC3.x264-KTH.part07.rar – 500.0 MB
Young.Mother.Real.3.2015.1080p.HDRip.AC3.x264-KTH.part08.rar – 500.0 MB
Young.Mother.Real.3.2015.1080p.HDRip.AC3.x264-KTH.part09.rar – 500.0 MB
Young.Mother.Real.3.2015.1080p.HDRip.AC3.x264-KTH.part10.rar – 477.2 MB

Author: ninja
Tags

Similar posts

Leave a Reply

Your email address will not be published. Required fields are marked *